[Lilith-Raws] 夢幻之星 / Phantasy Star Online 2 Episode Oracle – 18 [Baha][WEB-DL][1080p][AVC AAC][CHT][MKV]

[Lilith-Raws] 夢幻之星 / Phantasy Star Online 2 Episode Oracle – 18 [Baha][WEB-DL][1080p][AVC AAC][CHT][MKV]

Category:
Date:
2020-02-10 15:25 UTC

Submitter:
Seeders:
6

Information:
Leechers:
30

File size:
847.1 MiB
Completed:
3

Info hash:
a6794dc6849ecbcdb05b35c14392419b4ed8e6c5

Telegram Update Notification Channel : https://t.me/lilithraws Twitter : https://twitter.com/lilithraws We’re recommending [qBittorrent Enhanced Edition](https://github.com/c0re100/qBittorrent-Enhanced-Edition/releases) for downloading our seeds. We’ve opened cryptocurrencies donations. Feel free to donate, it’s not necessary. Bitcoin:3PuAEAS35aLVXt8jruhec1icFu8vR8B6kV Zcash:t1eRGFkiinTHQEKM9B5pTSLx5VFKmFXv3fd Litecoin:M85SkWDBy17APBfZAA41i77c8n1HgaBAcs Ethereum:9b9664fbb12c247294715866d8922bf3b75926b7 (Doesn’t accept smart contracts) BitTorrent Token (TRX):TAmeHvZGnV3xaWt7CQAWYcs6EqJRUNYyVG Paypal Donation -> [https://donorbox.org/lilithraws](https://donorbox.org/lilithraws)

  • [Lilith-Raws] Phantasy Star Online 2 Episode Oracle – 18 [Baha][WEB-DL][1080p][AVC AAC][CHT][MKV].mkv (847.1 MiB)

[Netflix] Dorohedoro – Episode 5 [1080p]

[Netflix] Dorohedoro – Episode 5 [1080p]

Category:
AnimeRaw
Date:
2020-02-08 20:34 UTC

Submitter:
Anonymous
Seeders:
81

Information:
Leechers:
27

File size:
338.5 MiB
Completed:
132

Info hash:
036c53b32e8d61b21147858c6f7b1f85c7b88ce1

Format : MPEG-4 Format profile : Base Media Codec ID : isom (isom/iso2/avc1/mp41) File size : 338 MiB Duration : 23 min 42 s Overall bit rate : 1 997 kb/s Writing application : Lavf58.33.100 Video ID : 1 Format : AVC Format/Info : Advanced Video Codec Format profile : High@L4 Format settings : CABAC / 3 Ref Frames Format settings, CABAC : Yes Format settings, Reference : 3 frames Codec ID : avc1 Codec ID/Info : Advanced Video Coding Duration : 23 min 42 s Bit rate : 1 864 kb/s Width : 1 920 pixels Height : 1 080 pixels Display aspect ratio : 16:9 Frame rate mode : Constant Frame rate : 23.976 FPS Color space : YUV Chroma subsampling : 4:2:0 Bit depth : 8 bits Scan type : Progressive Bits/(Pixel*Frame) : 0.037 Stream size : 316 MiB (93%) Codec configuration box : avcC Audio ID : 2 Format : AAC LC SBR Format/Info : Advanced Audio Codec Low Complexity with Spectral Band Replication Commercial name : HE-AAC Format settings : Explicit Codec ID : mp4a-40-2 Duration : 23 min 42 s Bit rate mode : Constant Bit rate : 128 kb/s Channel(s) : 2 channels Channel layout : L R Sampling rate : 48.0 kHz Frame rate : 23.438 FPS (2048 SPF) Compression mode : Lossy Stream size : 21.7 MiB (6%) Language : Japanese Default : Yes Alternate group : 1

  • [S1.Ep5] Dorohedoro – Episode 5.mp4 (338.5 MiB)

[Erai-raws] Phantasy Star Online 2 – Episode Oracle – 17 [1080p].mkv

[Erai-raws] Phantasy Star Online 2 – Episode Oracle – 17 [1080p].mkv

Category:
Date:
2020-02-03 19:34 UTC

Submitter:
Seeders:
20

Information:
Leechers:
9

File size:
1.3 GiB
Completed:
27

Info hash:
790eff14d30f8bc5fe01ceb5ef459664e59d156a

#### **To know which subtitles have been released for each episode of an anime** #### **or to download from direct links** #### **or to report for any damaged or corrupted releases, visit [Erai-raws Site](https://www.erai-raws.info)** #### **`|| or Join us in our Discord or Telegram channel to know all the new releases of the team or follow us on Facebook or Twitter. ||`** #### **[Discord](https://discord.gg/m3pcJuZ) ~ [Facebook](https://www.facebook.com/Erai.raws) ~ [IRC](irc://irc.rizon.net/Erai.raws) ~ [Telegram](https://t.me/Erai_raws) ~ [Twitter](https://twitter.com/Erai_raws)**

  • [Erai-raws] Phantasy Star Online 2 – Episode Oracle – 17 [1080p].mkv (1.3 GiB)