Blood Lad [Dual Audio] [HEVC] [10-bit] [BDRip] [HD 1080p] [bluury]

Blood Lad [Dual Audio] [HEVC] [10-bit] [BDRip] [HD 1080p] [bluury]

Category:
Date:
2020-04-05 17:25 UTC

Submitter:
Seeders:
28

Information:
Leechers:
56

File size:
2.8 GiB
Completed:
70

Info hash:
d49817c1091885d0549a7c7f7539fc7432140ce6

![FgS3TXI.jpg](https://extraimage.com/images/2020/04/05/FgS3TXI.jpg) Alternative Titles: English: Blood Lad Japanese: ブラッドラッド Information: Type: TV Episodes: 10 Status: Finished Airing Aired: Jul 8, 2013 to Sep 9, 2013 Premiered: Summer 2013 Broadcast: Unknown Producers: Kadokawa Shoten, KlockWorx, flying DOG Licensors: Viz Media Studios: Brain’s Base Source: Manga Genres: Action, Comedy, Demons, Seinen, Supernatural, Vampire Duration: 24 min. per ep. Rating: PG-13 – Teens 13 or older Synopsis: Staz Charlie Blood is a powerful vampire who rules the Eastern district of Demon World. According to rumors, he is a bloodthirsty and merciless monster, but in reality, Staz is just an otaku obsessed with Japanese culture and completely uninterested in human blood. Leaving the management of his territory to his underlings, Staz spends his days lazing around, indulging in anime, manga, and games. When Fuyumi Yanagi, a Japanese girl, accidentally wanders through a portal leading into the demon world, Staz is overjoyed. But just as he is starting to feel an unusual attraction to her, his territory is attacked, resulting in Fuyumi’s untimely death. She turns into a wandering ghost and the crestfallen Staz vows to resurrect her as this would mean being able to travel to the human world, something he has always dreamed of. Blood Lad follows Staz and Fuyumi, soon joined by the spatial magician Bell and the half-werewolf Wolf, as they travel to find a magic that can bring humans back to life. Uploader Notice Video : 1080p x265 10bit CRF 24 Custem Setting Audio 1: English audio 192kbps Audio :2 Japanese audio 192kbps sub1: English Subtitle Signs and songs sub2: English Subtitle for naming the file I wrote a software for it that take names from tvmaze you can use it its free and open source https://github.com/ravarage/Tv-Naming [![Screenshot-Blood-Lad-01-Shes-a-Skeleton-Now-T00.09.53.802-F14237.md.png](https://extraimage.com/images/2020/04/05/Screenshot-Blood-Lad-01-Shes-a-Skeleton-Now-T00.09.53.802-F14237.md.png)](https://extraimage.com/image/gusmw)[![Screenshot-Blood-Lad-05-Unindentified-Demon-Object-T00.11.21.306-F16335.md.png](https://extraimage.com/images/2020/04/05/Screenshot-Blood-Lad-05-Unindentified-Demon-Object-T00.11.21.306-F16335.md.png)](https://extraimage.com/image/guXQ2) [![Screenshot-Blood-Lad-06-Thats-Friendship-T00.17.38.182-F25371.md.png](https://extraimage.com/images/2020/04/05/Screenshot-Blood-Lad-06-Thats-Friendship-T00.17.38.182-F25371.md.png)](https://extraimage.com/image/gu9PQ)[![Screenshot-Blood-Lad-07-Liz-for-the-First-Time-T00.10.22.705-F14930.md.png](https://extraimage.com/images/2020/04/05/Screenshot-Blood-Lad-07-Liz-for-the-First-Time-T00.10.22.705-F14930.md.png)](https://extraimage.com/image/guroe) [![Screenshot-Blood-Lad-09-Sins-of-the-Eyeglasses-T00.07.02.047-F10119.md.png](https://extraimage.com/images/2020/04/05/Screenshot-Blood-Lad-09-Sins-of-the-Eyeglasses-T00.07.02.047-F10119.md.png)](https://extraimage.com/image/gu4GA)[![Screenshot-Blood-Lad-10-The-Dark-Hero-Rises-T00.04.45.243-F6839.md.png](https://extraimage.com/images/2020/04/05/Screenshot-Blood-Lad-10-The-Dark-Hero-Rises-T00.04.45.243-F6839.md.png)](https://extraimage.com/image/guyCo)

  • Blood Lad + OVA
    • Blood Lad – OVA.mkv (303.8 MiB)
    • Blood Lad 01 She’s a Skeleton Now.mkv (285.7 MiB)
    • Blood Lad 02 Back Home, But Not Really.mkv (308.1 MiB)
    • Blood Lad 03 You Had It All Along.mkv (294.9 MiB)
    • Blood Lad 04 To Demon World Acropolis.mkv (237.5 MiB)
    • Blood Lad 05 Unindentified Demon Object.mkv (219.7 MiB)
    • Blood Lad 06 That’s Friendship.mkv (284.8 MiB)
    • Blood Lad 07 Liz, for the First Time.mkv (210.2 MiB)
    • Blood Lad 08 Two is a Treasure.mkv (263.8 MiB)
    • Blood Lad 09 Sins of the Eyeglasses.mkv (258.4 MiB)
    • Blood Lad 10 The Dark Hero Rises.mkv (230.1 MiB)
    • Torrent Downloaded From Katcr.co – Kickasstorrents.txt (73 Bytes)

[D0ugyB0y]Violet Evergarden Gaiden Eien To Jidou Shuki Ningyou (BD 1920x804p AVC AAC 10Bit) (Eng Sub)

[D0ugyB0y]Violet Evergarden Gaiden Eien To Jidou Shuki Ningyou (BD 1920x804p AVC AAC 10Bit) (Eng Sub)

Category:
Date:
2020-04-04 17:38 UTC

Submitter:
Seeders:
32

Information:
No information.
Leechers:
10

File size:
3.6 GiB
Completed:
105

Info hash:
06cdb980e9d95f299099454a6f03a7959c032420

Please install these fonts before viewing, as they weren’t muxed with the release. https://www.mediafire.com/file/j8zzvt2sidhdfkk/fonts.zip/file Here is my final version, went through the script and fixed some translation issues, changed the type of font used/redone the ED. It has taken me 6+ hours to complete including watching it all the way through, If you think you could a better job. Feel free to do so 🙂 ![screenshot 1](https://i.imgur.com/Ykk51d0.png) ![screenshot 1](https://i.imgur.com/KWPMOiY.png) ![screenshot 1](https://i.imgur.com/pt8Zwm7.png) ![screenshot 1](https://i.imgur.com/BnPqn3n.png)

  • Violet Evergarden Gaiden Eien To Jidou Shuki Ningyou.mkv (3.6 GiB)

Fate Zero (2011) S01 [1080p x265 HEVC 10bit BluRay Dual Audio AAC] [Prof]

Fate Zero (2011) S01 [1080p x265 HEVC 10bit BluRay Dual Audio AAC] [Prof]

Category:
Date:
2020-04-04 04:52 UTC

Submitter:
Seeders:
33

Information:
No information.
Leechers:
29

File size:
8.1 GiB
Completed:
64

Info hash:
e89eee6f7abe8f48962c3bb081d94136065bf0d3

[![Prof-S01-E01-Summoning-Ancient-Heroes-mkv-snapshot-34-51-2020-04-02-17-09-59.png](https://i.postimg.cc/pLw9pCJt/Prof-S01-E01-Summoning-Ancient-Heroes-mkv-snapshot-34-51-2020-04-02-17-09-59.png)](https://postimg.cc/FYxF6j6P) [![Prof-S01-E03-Land-of-Fuyuki-mkv-snapshot-20-43-2020-04-02-17-13-51.png](https://i.postimg.cc/BQ14X0YX/Prof-S01-E03-Land-of-Fuyuki-mkv-snapshot-20-43-2020-04-02-17-13-51.png)](https://postimg.cc/HVHfhfCg) [![Prof-S01-E02-False-Start-mkv-snapshot-13-23-2020-04-02-17-12-25.png](https://i.postimg.cc/rsHV7yhL/Prof-S01-E02-False-Start-mkv-snapshot-13-23-2020-04-02-17-12-25.png)](https://postimg.cc/GTknyRwM) General Unique ID : 85268280922387553020863080515091180650 (0x402612D466B42E03F329EB32C9022C6A) Complete name : C:\Users\prof2\Downloads\Fate Zero (2011) S01 [1080p x265 HEVC 10bit BluRay Dual Audio AAC] [Prof]\[Prof] S01E01 – Summoning Ancient Heroes.mkv Format : Matroska Format version : Version 4 File size : 1.03 GiB Duration : 47 min 53 s Overall bit rate : 3 075 kb/s Encoded date : UTC 2020-03-29 02:32:08 Writing application : mkvmerge v29.0.0 (‘Like It Or Not’) 64-bit Writing library : libebml v1.3.6 + libmatroska v1.4.9 Writing frontend : StaxRip v2.0.0.0 Video ID : 1 Format : HEVC Format/Info : High Efficiency Video Coding Format profile : Main 10@L4@Main Codec ID : V_MPEGH/ISO/HEVC Duration : 47 min 53 s Bit rate : 2 312 kb/s Width : 1 920 pixels Height : 1 080 pixels Display aspect ratio : 16:9 Frame rate mode : Constant Frame rate : 23.976 (24000/1001) FPS Color space : YUV Chroma subsampling : 4:2:0 Bit depth : 10 bits Bits/(Pixel*Frame) : 0.046 Stream size : 792 MiB (75%) Writing library : x265 3.3+2-gd9a7411cc:[Windows][MSVC 1925][64 bit] 10bit Encoding settings : cpuid=1111039 / frame-threads=3 / numa-pools=12 / wpp / no-pmode / no-pme / no-psnr / no-ssim / log-level=2 / input-csp=1 / input-res=1920×1080 / interlace=0 / total-frames=68903 / level-idc=0 / high-tier=1 / uhd-bd=0 / ref=4 / no-allow-non-conformance / no-repeat-headers / annexb / no-aud / no-hrd / info / hash=0 / no-temporal-layers / open-gop / min-keyint=23 / keyint=250 / gop-lookahead=0 / bframes=8 / b-adapt=2 / b-pyramid / bframe-bias=0 / rc-lookahead=80 / lookahead-slices=6 / scenecut=40 / hist-scenecut=0 / radl=0 / no-splice / no-intra-refresh / ctu=64 / min-cu-size=8 / rect / no-amp / max-tu-size=32 / tu-inter-depth=1 / tu-intra-depth=1 / limit-tu=0 / rdoq-level=2 / dynamic-rd=0.00 / no-ssim-rd / signhide / no-tskip / nr-intra=0 / nr-inter=0 / no-constrained-intra / strong-intra-smoothing / max-merge=3 / limit-refs=3 / limit-modes / me=3 / subme=3 / merange=57 / temporal-mvp / no-frame-dup / no-hme / weightp / no-weightb / no-analyze-src-pics / deblock=0:0 / sao / no-sao-non-deblock / rd=4 / selective-sao=4 / no-early-skip / rskip / no-fast-intra / no-tskip-fast / no-cu-lossless / no-b-intra / no-splitrd-skip / rdpenalty=0 / psy-rd=2.00 / psy-rdoq=1.00 / no-rd-refine / no-lossless / cbqpoffs=0 / crqpoffs=0 / rc=crf / crf=19.0 / qcomp=0.60 / qpstep=4 / stats-write=0 / stats-read=0 / ipratio=1.40 / pbratio=1.30 / aq-mode=2 / aq-strength=1.00 / cutree / zone-count=0 / no-strict-cbr / qg-size=32 / no-rc-grain / qpmax=69 / qpmin=0 / no-const-vbv / sar=0 / overscan=0 / videoformat=5 / range=0 / colorprim=2 / transfer=2 / colormatrix=2 / chromaloc=0 / display-window=0 / cll=0,0 / min-luma=0 / max-luma=1023 / log2-max-poc-lsb=8 / vui-timing-info / vui-hrd-info / slices=1 / no-opt-qp-pps / no-opt-ref-list-length-pps / no-multi-pass-opt-rps / scenecut-bias=0.05 / hist-threshold=0.01 / no-opt-cu-delta-qp / no-aq-motion / no-hdr10 / no-hdr10-opt / no-dhdr10-opt / no-idr-recovery-sei / analysis-reuse-level=0 / analysis-save-reuse-level=0 / analysis-load-reuse-level=0 / scale-factor=0 / refine-intra=0 / refine-inter=0 / refine-mv=1 / refine-ctu-distortion=0 / no-limit-sao / ctu-info=0 / no-lowpass-dct / refine-analysis-type=0 / copy-pic=1 / max-ausize-factor=1.0 / no-dynamic-refine / no-single-sei / no-hevc-aq / no-svt / no-field / qp-adaptation-range=1.00 / no-scenecut-aware-qpconformance-window-offsets / right=0 / bottom=0 Default : Yes Forced : No Audio #1 ID : 2 Format : AAC LC Format/Info : Advanced Audio Codec Low Complexity Codec ID : A_AAC-2 Duration : 47 min 45 s Bit rate : 257 kb/s Channel(s) : 2 channels Channel layout : L R Sampling rate : 48.0 kHz Frame rate : 46.875 FPS (1024 SPF) Compression mode : Lossy Delay relative to video : 20 ms Stream size : 87.7 MiB (8%) Language : English Default : No Forced : No Audio #2 ID : 3 Format : AAC LC Format/Info : Advanced Audio Codec Low Complexity Codec ID : A_AAC-2 Duration : 47 min 53 s Bit rate : 254 kb/s Channel(s) : 2 channels Channel layout : L R Sampling rate : 48.0 kHz Frame rate : 46.875 FPS (1024 SPF) Compression mode : Lossy Delay relative to video : 20 ms Stream size : 87.0 MiB (8%) Language : Japanese Default : No Forced : No Text #1 ID : 4 Format : PGS Muxing mode : zlib Codec ID : S_HDMV/PGS Codec ID/Info : Picture based subtitle format used on BDs/HD-DVDs Duration : 47 min 31 s Bit rate : 397 kb/s Count of elements : 5216 Stream size : 135 MiB (13%) Language : English Default : No Forced : No Text #2 ID : 5 Format : PGS Muxing mode : zlib Codec ID : S_HDMV/PGS Codec ID/Info : Picture based subtitle format used on BDs/HD-DVDs Duration : 47 min 32 s Bit rate : 24.3 kb/s Count of elements : 270 Stream size : 8.25 MiB (1%) Language : English Default : Yes Forced : No Text #3 ID : 6 Format : PGS Muxing mode : zlib Codec ID : S_HDMV/PGS Codec ID/Info : Picture based subtitle format used on BDs/HD-DVDs Duration : 47 min 32 s Bit rate : 311 kb/s Count of elements : 5407 Stream size : 106 MiB (10%) Language : English Default : Yes Forced : No Menu 00:00:00.000 : en:00:00:00.000 00:02:59.054 : en:00:02:59.054 00:08:43.898 : en:00:08:43.898 00:15:28.970 : en:00:15:28.970 00:21:02.678 : en:00:21:02.678 00:23:41.003 : en:00:23:41.003 00:30:58.690 : en:00:30:58.690 00:32:33.994 : en:00:32:33.994 00:36:47.789 : en:00:36:47.789 00:39:10.765 : en:00:39:10.765 00:42:12.029 : en:00:42:12.029 00:45:00.031 : en:00:45:00.031 00:47:29.972 : en:00:47:29.972

  • Fate Zero (2011) S01 [1080p x265 HEVC 10bit BluRay Dual Audio AAC] [Prof]
    • [Prof] S01E01 – Summoning Ancient Heroes.mkv (1.0 GiB)
    • [Prof] S01E02 – False Start.mkv (524.5 MiB)
    • [Prof] S01E03 – Land of Fuyuki.mkv (584.4 MiB)
    • [Prof] S01E04 – Blade of the Demonic Spear.mkv (664.8 MiB)
    • [Prof] S01E05 – The Vicious Beast Roars.mkv (653.3 MiB)
    • [Prof] S01E06 – Night of Schemes.mkv (526.1 MiB)
    • [Prof] S01E07 – The Evil Forest.mkv (640.6 MiB)
    • [Prof] S01E08 – The Magus Killer.mkv (580.6 MiB)
    • [Prof] S01E09 – Signs.mkv (542.1 MiB)
    • [Prof] S01E10 – Rin’s Adventure.mkv (566.0 MiB)
    • [Prof] S01E11 – The Grail Dialogue.mkv (670.0 MiB)
    • [Prof] S01E12 – The Grail’s Invitation.mkv (632.0 MiB)
    • [Prof] S01E13 – Forbidden Banquet.mkv (666.4 MiB)