Food.Wars!.S03.1080p.Blu-Ray.10-Bit.Dual-Audio.DTS-HD.x265-iAHD

Food.Wars!.S03.1080p.Blu-Ray.10-Bit.Dual-Audio.DTS-HD.x265-iAHD

Category:
Date:
2020-02-17 05:41 UTC

Submitter:
Seeders:
3

Information:
No information.
Leechers:
19

File size:
33.2 GiB
Completed:
0

Info hash:
2264028215640b46d636ef71a86367a09d0f454a

Video ID : 1 Format : HEVC Format/Info : High Efficiency Video Coding Format profile : Main 10@L5@Main Codec ID : V_MPEGH/ISO/HEVC Duration : 24 min 12 s Bit rate : 4 364 kb/s Width : 1 920 pixels Height : 1 080 pixels Display aspect ratio : 16:9 Frame rate mode : Constant Frame rate : 23.976 (24000/1001) FPS Color space : YUV Chroma subsampling : 4:2:0 Bit depth : 10 bits Bits/(Pixel*Frame) : 0.088 Stream size : 756 MiB (50%) Writing library : x265 3.2.1+1-b5c86a64bbbe:[Windows][GCC 9.2.0][64 bit] 10bit Encoding settings : cpuid=1111039 / frame-threads=4 / numa-pools=16 / wpp / no-pmode / no-pme / no-psnr / no-ssim / log-level=2 / input-csp=1 / input-res=1920×1080 / interlace=0 / total-frames=0 / level-idc=0 / high-tier=1 / uhd-bd=0 / ref=6 / no-allow-non-conformance / no-repeat-headers / annexb / no-aud / no-hrd / info / hash=0 / no-temporal-layers / open-gop / min-keyint=24 / keyint=240 / gop-lookahead=0 / bframes=16 / b-adapt=2 / b-pyramid / bframe-bias=0 / rc-lookahead=50 / lookahead-slices=4 / scenecut=40 / radl=0 / no-splice / no-intra-refresh / ctu=32 / min-cu-size=8 / rect / no-amp / max-tu-size=32 / tu-inter-depth=1 / tu-intra-depth=3 / limit-tu=0 / rdoq-level=2 / dynamic-rd=0.00 / no-ssim-rd / signhide / tskip / nr-intra=0 / nr-inter=0 / no-constrained-intra / strong-intra-smoothing / max-merge=3 / limit-refs=3 / limit-modes / me=3 / subme=3 / merange=57 / temporal-mvp / no-hme / weightp / no-weightb / no-analyze-src-pics / deblock=1:1 / sao / no-sao-non-deblock / rd=4 / selective-sao=4 / no-early-skip / rskip / no-fast-intra / tskip-fast / no-cu-lossless / no-b-intra / no-splitrd-skip / rdpenalty=0 / psy-rd=0.40 / psy-rdoq=1.00 / no-rd-refine / no-lossless / cbqpoffs=0 / crqpoffs=0 / rc=crf / crf=16.0 / qcomp=0.60 / qpstep=4 / stats-write=0 / stats-read=0 / ipratio=1.40 / pbratio=1.30 / aq-mode=3 / aq-strength=0.80 / cutree / zone-count=0 / no-strict-cbr / qg-size=32 / no-rc-grain / qpmax=69 / qpmin=0 / no-const-vbv / sar=1 / overscan=0 / videoformat=5 / range=0 / colorprim=1 / transfer=1 / colormatrix=1 / chromaloc=0 / display-window=0 / cll=0,0 / min-luma=0 / max-luma=1023 / log2-max-poc-lsb=8 / vui-timing-info / vui-hrd-info / slices=1 / no-opt-qp-pps / no-opt-ref-list-length-pps / no-multi-pass-opt-rps / scenecut-bias=0.05 / no-opt-cu-delta-qp / no-aq-motion / no-hdr / no-hdr-opt / no-dhdr10-opt / no-idr-recovery-sei / analysis-reuse-level=5 / scale-factor=0 / refine-intra=0 / refine-inter=0 / refine-mv=1 / refine-ctu-distortion=0 / no-limit-sao / ctu-info=0 / no-lowpass-dct / refine-analysis-type=0 / copy-pic=1 / max-ausize-factor=1.0 / no-dynamic-refine / no-single-sei / no-hevc-aq / no-svt / no-field / qp-adaptation-range=1.00 Language : Japanese Default : Yes Forced : No Color range : Limited Color primaries : BT.709 Transfer characteristics : BT.709 Matrix coefficients : BT.709 Audio #1 ID : 2 Format : DTS XLL Format/Info : Digital Theater Systems Commercial name : DTS-HD Master Audio Codec ID : A_DTS Duration : 24 min 12 s Bit rate mode : Variable Bit rate : 2 167 kb/s Channel(s) : 2 channels Channel layout : L R Sampling rate : 48.0 kHz Frame rate : 93.750 FPS (512 SPF) Bit depth : 24 bits Compression mode : Lossless Stream size : 375 MiB (25%) Language : English Default : Yes Forced : No Audio #2 ID : 3 Format : DTS XLL Format/Info : Digital Theater Systems Commercial name : DTS-HD Master Audio Codec ID : A_DTS Duration : 24 min 12 s Bit rate mode : Variable Bit rate : 2 215 kb/s Channel(s) : 2 channels Channel layout : L R Sampling rate : 48.0 kHz Frame rate : 93.750 FPS (512 SPF) Bit depth : 24 bits Compression mode : Lossless Stream size : 384 MiB (25%) Language : Japanese Default : No Forced : No Text #1 ID : 4 Format : PGS Muxing mode : zlib Codec ID : S_HDMV/PGS Codec ID/Info : Picture based subtitle format used on BDs/HD-DVDs Duration : 24 min 9 s Bit rate : 8 046 b/s Count of elements : 108 Stream size : 1.39 MiB (0%) Title : Signs / Songs Language : English Default : Yes Forced : No Text #2 ID : 5 Format : PGS Muxing mode : zlib Codec ID : S_HDMV/PGS Codec ID/Info : Picture based subtitle format used on BDs/HD-DVDs Duration : 24 min 9 s Bit rate : 74.1 kb/s Count of elements : 705 Stream size : 12.8 MiB (1%) Title : Dialogue Language : English Default : No Forced : No Menu 00:00:00.000 : en:Chapter 01 00:04:15.005 : en:Chapter 02 00:05:45.095 : en:Chapter 03 00:13:20.008 : en:Chapter 04 00:21:57.650 : en:Chapter 05 00:23:27.156 : en:Chapter 06 00:24:06.070 : en:Chapter 07

  • Food.Wars!.S03.1080p.Blu-Ray.10-Bit.Dual-Audio.DTS-HD.x265-iAHD
    • Food.Wars!.S03E01.1080p.Blu-Ray.10-Bit.Dual-Audio.DTS-HD.x265-iAHD.mkv (1.5 GiB)
    • Food.Wars!.S03E02.1080p.Blu-Ray.10-Bit.Dual-Audio.DTS-HD.x265-iAHD.mkv (1.4 GiB)
    • Food.Wars!.S03E03.1080p.Blu-Ray.10-Bit.Dual-Audio.DTS-HD.x265-iAHD.mkv (1.4 GiB)
    • Food.Wars!.S03E04.1080p.Blu-Ray.10-Bit.Dual-Audio.DTS-HD.x265-iAHD.mkv (1.5 GiB)
    • Food.Wars!.S03E05.1080p.Blu-Ray.10-Bit.Dual-Audio.DTS-HD.x265-iAHD.mkv (1.2 GiB)
    • Food.Wars!.S03E06.1080p.Blu-Ray.10-Bit.Dual-Audio.DTS-HD.x265-iAHD.mkv (1.3 GiB)
    • Food.Wars!.S03E07.1080p.Blu-Ray.10-Bit.Dual-Audio.DTS-HD.x265-iAHD.mkv (1.3 GiB)
    • Food.Wars!.S03E08.1080p.Blu-Ray.10-Bit.Dual-Audio.DTS-HD.x265-iAHD.mkv (1.4 GiB)
    • Food.Wars!.S03E09.1080p.Blu-Ray.10-Bit.Dual-Audio.DTS-HD.x265-iAHD.mkv (1.3 GiB)
    • Food.Wars!.S03E10.1080p.Blu-Ray.10-Bit.Dual-Audio.DTS-HD.x265-iAHD.mkv (1.4 GiB)
    • Food.Wars!.S03E11.1080p.Blu-Ray.10-Bit.Dual-Audio.DTS-HD.x265-iAHD.mkv (1.3 GiB)
    • Food.Wars!.S03E12.1080p.Blu-Ray.10-Bit.Dual-Audio.DTS-HD.x265-iAHD.mkv (1.3 GiB)
    • Food.Wars!.S03E13.1080p.Blu-Ray.10-Bit.Dual-Audio.DTS-HD.x265-iAHD.mkv (1.4 GiB)
    • Food.Wars!.S03E14.1080p.Blu-Ray.10-Bit.Dual-Audio.DTS-HD.x265-iAHD.mkv (1.5 GiB)
    • Food.Wars!.S03E15.1080p.Blu-Ray.10-Bit.Dual-Audio.DTS-HD.x265-iAHD.mkv (1.5 GiB)
    • Food.Wars!.S03E16.1080p.Blu-Ray.10-Bit.Dual-Audio.DTS-HD.x265-iAHD.mkv (1.4 GiB)
    • Food.Wars!.S03E17.1080p.Blu-Ray.10-Bit.Dual-Audio.DTS-HD.x265-iAHD.mkv (1.5 GiB)
    • Food.Wars!.S03E18.1080p.Blu-Ray.10-Bit.Dual-Audio.DTS-HD.x265-iAHD.mkv (1.4 GiB)
    • Food.Wars!.S03E19.1080p.Blu-Ray.10-Bit.Dual-Audio.DTS-HD.x265-iAHD.mkv (1.4 GiB)
    • Food.Wars!.S03E20.1080p.Blu-Ray.10-Bit.Dual-Audio.DTS-HD.x265-iAHD.mkv (1.4 GiB)
    • Food.Wars!.S03E21.1080p.Blu-Ray.10-Bit.Dual-Audio.DTS-HD.x265-iAHD.mkv (1.3 GiB)
    • Food.Wars!.S03E22.1080p.Blu-Ray.10-Bit.Dual-Audio.DTS-HD.x265-iAHD.mkv (1.4 GiB)
    • Food.Wars!.S03E23.1080p.Blu-Ray.10-Bit.Dual-Audio.DTS-HD.x265-iAHD.mkv (1.4 GiB)
    • Food.Wars!.S03E24.1080p.Blu-Ray.10-Bit.Dual-Audio.DTS-HD.x265-iAHD.mkv (1.5 GiB)

[Over-Time] Dinoknight Sentai Ryusoulger – 46 [A9FF645C].mkv

[Over-Time] Dinoknight Sentai Ryusoulger – 46 [A9FF645C].mkv

Category:
Date:
2020-02-17 05:26 UTC

Submitter:
Seeders:
3

Information:
Leechers:
38

File size:
839.5 MiB
Completed:
0

Info hash:
ec48c4641825efecc0c0567c143f8072ad4eb054

#### No description.

  • [Over-Time] Dinoknight Sentai Ryusoulger – 46 [A9FF645C].mkv (839.5 MiB)

[Ryuuga] – Death Note (2006) S01 – [1080p-AAC LC-x264]-[WEB-DL]

[Ryuuga] – Death Note (2006) S01 – [1080p-AAC LC-x264]-[WEB-DL]

Category:
Date:
2020-02-17 05:05 UTC

Submitter:
Seeders:
3

Information:
No information.
Leechers:
84

File size:
48.2 GiB
Completed:
1

Info hash:
f0552cd3308e3aab9d9d1d6e7c72342b38606e60

Video ID : 1 Format : AVC Format/Info : Advanced Video Codec Nominal bit rate : 8 000 kb/s Width : 1 920 pixels Height : 1 080 pixels Display aspect ratio : 16:9 Frame rate mode : Constant Frame rate : 23.976 (24000/1001) FPS Audio ID : 2 Format : AAC LC Channel(s) : 2 channels Channel layout : L R Sampling rate : 44.1 kHz Frame rate : 43.066 FPS (1024 SPF) Compression mode : Lossy Subtitle – English

  • Death Note [1080p] [Ryuuga]
    • [Ryuuga] – Death Note – 01 – Rebirth [1080p].mkv (1.3 GiB)
    • [Ryuuga] – Death Note – 02 – Confrontation [1080p].mkv (1.3 GiB)
    • [Ryuuga] – Death Note – 03 – Dealings [1080p].mkv (1.3 GiB)
    • [Ryuuga] – Death Note – 04 – Pursuit [1080p].mkv (1.3 GiB)
    • [Ryuuga] – Death Note – 05 – Tactics [1080p].mkv (1.3 GiB)
    • [Ryuuga] – Death Note – 06 – Unraveling [1080p].mkv (1.3 GiB)
    • [Ryuuga] – Death Note – 07 – Overcast [1080p].mkv (1.3 GiB)
    • [Ryuuga] – Death Note – 08 – Glare [1080p].mkv (1.3 GiB)
    • [Ryuuga] – Death Note – 09 – Encounter [1080p].mkv (1.3 GiB)
    • [Ryuuga] – Death Note – 10 – Doubt [1080p].mkv (1.3 GiB)
    • [Ryuuga] – Death Note – 11 – Assault [1080p].mkv (1.3 GiB)
    • [Ryuuga] – Death Note – 12 – Love [1080p].mkv (1.3 GiB)
    • [Ryuuga] – Death Note – 13 – Confession [1080p].mkv (1.3 GiB)
    • [Ryuuga] – Death Note – 14 – Friend [1080p].mkv (1.3 GiB)
    • [Ryuuga] – Death Note – 15 – Wager [1080p].mkv (1.3 GiB)
    • [Ryuuga] – Death Note – 16 – Decision [1080p].mkv (1.3 GiB)
    • [Ryuuga] – Death Note – 17 – Execution [1080p].mkv (1.3 GiB)
    • [Ryuuga] – Death Note – 18 – Ally [1080p].mkv (1.3 GiB)
    • [Ryuuga] – Death Note – 19 – Matsuda [1080p].mkv (1.3 GiB)
    • [Ryuuga] – Death Note – 20 – Makeshift [1080p].mkv (1.3 GiB)
    • [Ryuuga] – Death Note – 21 – Performance [1080p].mkv (1.3 GiB)
    • [Ryuuga] – Death Note – 22 – Guidance [1080p].mkv (1.3 GiB)
    • [Ryuuga] – Death Note – 23 – Frenzy [1080p].mkv (1.3 GiB)
    • [Ryuuga] – Death Note – 24 – Revival [1080p].mkv (1.3 GiB)
    • [Ryuuga] – Death Note – 25 – Silence [1080p].mkv (1.3 GiB)
    • [Ryuuga] – Death Note – 26 – Renewal [1080p].mkv (1.3 GiB)
    • [Ryuuga] – Death Note – 27 – Abduction [1080p].mkv (1.3 GiB)
    • [Ryuuga] – Death Note – 28 – Impatience [1080p].mkv (1.3 GiB)
    • [Ryuuga] – Death Note – 29 – Father [1080p].mkv (1.3 GiB)
    • [Ryuuga] – Death Note – 30 – Justice [1080p].mkv (1.3 GiB)
    • [Ryuuga] – Death Note – 31 – Transfer [1080p].mkv (1.3 GiB)
    • [Ryuuga] – Death Note – 32 – Selection [1080p].mkv (1.3 GiB)
    • [Ryuuga] – Death Note – 33 – Scorn [1080p].mkv (1.3 GiB)
    • [Ryuuga] – Death Note – 34 – Vigilance [1080p].mkv (1.3 GiB)
    • [Ryuuga] – Death Note – 35 – Malice [1080p].mkv (1.3 GiB)
    • [Ryuuga] – Death Note – 36 – 1.28 [1080p].mkv (1.3 GiB)
    • [Ryuuga] – Death Note – 37 – New World [1080p].mkv (1.3 GiB)