[NHF-Encodes] Violet Evergarden Gaiden Eien To Jidou Shuki Ningyou [v2] [BD 1920×804] [HEVC x265 10bit].mkv

[NHF-Encodes] Violet Evergarden Gaiden Eien To Jidou Shuki Ningyou [v2] [BD 1920×804] [HEVC x265 10bit].mkv

Category:
Date:
2020-04-06 09:17 UTC

Submitter:
Seeders:
10

Information:
No information.
Leechers:
14

File size:
802.8 MiB
Completed:
20

Info hash:
5cf8ba747c62eeaac92d9ee0a364c5c189bc028b

# ヴァイオレット・エヴァーガーデン 外伝 -永遠と自動手記人形- ## Violet Evergarden Gaiden: Eien to Jidou Shuki Ningyou ### (Violet Evergarden Side Story: Eternity and the Auto Memory Doll) — Video Format : x265 HEVC 10bit MKV Audio: Japanese (Opus 192 kb/s Stereo) Source: [Ohys-Raws](https://nyaa.si/view/1230176) (5.4 GiB) Subtitles: [D0ugyB0y](https://nyaa.si/view/1235441) English — In the v2 the subtitles are updated and the correct fonts are muxed. Let me know if you want a dual audio version. — ### Please seed after downloading! — ### Screenshots: Comparison: https://slow.pics/c/pP1jvlNf ![Screenshot1](https://i.slow.pics/T2ZNQHzf.png) ![Screenshot2](https://i.slow.pics/zzSmA65C.png) ![Screenshot3](https://i.slow.pics/HlsdXnNP.png) ![Screenshot4](https://i.slow.pics/NjFA7eSr.png) — ### Mediainfo: “` General Unique ID : 267838274553727538122200963124552701272 (0xC97FC67B7A02599F0D5AC1E324D29558) Complete name : D:\Videos\_TODO\Violet\v2\[NHF-Encodes] Violet Evergarden Gaiden Eien To Jidou Shuki Ningyou [v2] [BD 1920×804] [HEVC x265 10bit].mkv Format : Matroska Format version : Version 4 File size : 803 MiB Duration : 1 h 30 min Overall bit rate : 1 238 kb/s Encoded date : UTC 2020-04-06 09:06:09 Writing application : mkvmerge v45.0.0 (‘Heaven in Pennies’) 64-bit Writing library : libebml v1.3.10 + libmatroska v1.5.2 Attachments : corbelb.ttf / Dosis-Regular.ttf / Gabriola.ttf / GandhiSans-Bold.otf / candaral.ttf Video ID : 1 Format : HEVC Format/Info : High Efficiency Video Coding Format profile : Main 10@L4@Main Codec ID : V_MPEGH/ISO/HEVC Duration : 1 h 30 min Bit rate : 1 047 kb/s Width : 1 920 pixels Height : 804 pixels Display aspect ratio : 2.40:1 Frame rate mode : Variable Frame rate : 23.976 FPS Color space : YUV Chroma subsampling : 4:2:0 Bit depth : 10 bits Bits/(Pixel*Frame) : 0.028 Stream size : 679 MiB (85%) Writing library : x265 3.2+35-acc5d16999e2:[Windows][GCC 9.2.1][64 bit] 10bit Encoding settings : cpuid=1111039 / frame-threads=3 / numa-pools=12 / wpp / no-pmode / no-pme / no-psnr / no-ssim / log-level=2 / input-csp=1 / input-res=1920×804 / interlace=0 / total-frames=0 / level-idc=0 / high-tier=1 / uhd-bd=0 / ref=4 / no-allow-non-conformance / no-repeat-headers / annexb / no-aud / no-hrd / info / hash=0 / no-temporal-layers / open-gop / min-keyint=23 / keyint=250 / gop-lookahead=0 / bframes=4 / b-adapt=2 / b-pyramid / bframe-bias=0 / rc-lookahead=25 / lookahead-slices=4 / scenecut=40 / hist-scenecut=0 / radl=0 / no-splice / no-intra-refresh / ctu=64 / min-cu-size=8 / rect / no-amp / max-tu-size=32 / tu-inter-depth=1 / tu-intra-depth=1 / limit-tu=0 / rdoq-level=2 / dynamic-rd=0.00 / no-ssim-rd / signhide / no-tskip / nr-intra=0 / nr-inter=0 / no-constrained-intra / strong-intra-smoothing / max-merge=3 / limit-refs=3 / limit-modes / me=3 / subme=3 / merange=57 / temporal-mvp / no-frame-dup / no-hme / weightp / no-weightb / no-analyze-src-pics / deblock=0:0 / sao / no-sao-non-deblock / rd=4 / selective-sao=4 / no-early-skip / rskip / no-fast-intra / no-tskip-fast / no-cu-lossless / no-b-intra / no-splitrd-skip / rdpenalty=0 / psy-rd=2.00 / psy-rdoq=1.00 / no-rd-refine / no-lossless / cbqpoffs=0 / crqpoffs=0 / rc=crf / crf=21.0 / qcomp=0.60 / qpstep=4 / stats-write=0 / stats-read=0 / ipratio=1.40 / pbratio=1.30 / aq-mode=2 / aq-strength=1.00 / cutree / zone-count=0 / no-strict-cbr / qg-size=32 / no-rc-grain / qpmax=69 / qpmin=0 / no-const-vbv / sar=1 / overscan=0 / videoformat=5 / range=0 / colorprim=2 / transfer=2 / colormatrix=2 / chromaloc=0 / display-window=0 / cll=0,0 / min-luma=0 / max-luma=1023 / log2-max-poc-lsb=8 / vui-timing-info / vui-hrd-info / slices=1 / no-opt-qp-pps / no-opt-ref-list-length-pps / no-multi-pass-opt-rps / scenecut-bias=0.05 / hist-threshold=0.01 / no-opt-cu-delta-qp / no-aq-motion / no-hdr10 / no-hdr10-opt / no-dhdr10-opt / no-idr-recovery-sei / analysis-reuse-level=0 / analysis-save-reuse-level=0 / analysis-load-reuse-level=0 / scale-factor=0 / refine-intra=0 / refine-inter=0 / refine-mv=1 / refine-ctu-distortion=0 / no-limit-sao / ctu-info=0 / no-lowpass-dct / refine-analysis-type=0 / copy-pic=1 / max-ausize-factor=1.0 / no-dynamic-refine / no-single-sei / no-hevc-aq / no-svt / no-field / qp-adaptation-range=1.00 / no-scenecut-aware-qpconformance-window-offsets / right=0 / bottom=0 Default : Yes Forced : No Color range : Limited Audio ID : 2 Format : Opus Codec ID : A_OPUS Duration : 1 h 30 min Bit rate : 185 kb/s Channel(s) : 2 channels Channel layout : L R Sampling rate : 48.0 kHz Frame rate : 50.000 FPS (960 SPF) Compression mode : Lossy Stream size : 120 MiB (15%) Title : Stereo Language : Japanese Default : Yes Forced : No Text ID : 3 Format : ASS Codec ID : S_TEXT/ASS Codec ID/Info : Advanced Sub Station Alpha Duration : 1 h 27 min Bit rate : 70 b/s Count of elements : 899 Compression mode : Lossless Stream size : 45.4 KiB (0%) Title : English [D0ugyB0y] Language : English Default : Yes Forced : No Menu 00:00:00.000 : :Chapter 1 00:09:55.761 : :Chapter 2 00:19:59.656 : :Chapter 3 00:29:55.418 : :Chapter 4 00:43:28.814 : :Chapter 5 00:53:38.840 : :Chapter 6 01:03:20.713 : :Chapter 7 01:13:29.780 : :Chapter 8 01:25:44.514 : :Chapter 9 “`

  • [NHF-Encodes] Violet Evergarden Gaiden Eien To Jidou Shuki Ningyou [v2] [BD 1920×804] [HEVC x265 10bit].mkv (802.8 MiB)

[PSP] [ULJM-05751] 涼宮ハルヒちゃんの麻雀 / Suzumiya Haruhi-Chan no Mahjong

[PSP] [ULJM-05751] 涼宮ハルヒちゃんの麻雀 / Suzumiya Haruhi-Chan no Mahjong

Category:
Date:
2020-04-06 08:55 UTC

Submitter:
Seeders:
22

Information:
No information.
Leechers:
17

File size:
497.2 MiB
Completed:
51

Info hash:
fb0c5fade9600bb8f77ca07c44acf8a107e73b16

#### No description.

  • ULJM-05751.iso (497.2 MiB)

[Lilith-Raws] 王者天下 / Kingdom S03 – 01 [Baha][WEB-DL][1080p][AVC AAC][CHT][MKV]

[Lilith-Raws] 王者天下 / Kingdom S03 – 01 [Baha][WEB-DL][1080p][AVC AAC][CHT][MKV]

Category:
Date:
2020-04-06 08:43 UTC

Submitter:
Seeders:
53

Information:
Leechers:
26

File size:
895.0 MiB
Completed:
103

Info hash:
45b2a80b0e948af8b77343191b8ba3b6f74759e0

Telegram Update Notification Channel : https://t.me/lilithraws Twitter : https://twitter.com/lilithraws We’re recommending [qBittorrent Enhanced Edition](https://github.com/c0re100/qBittorrent-Enhanced-Edition/releases) for downloading our seeds. We’ve opened cryptocurrencies donations. Feel free to donate, it’s not necessary. Bitcoin:3PuAEAS35aLVXt8jruhec1icFu8vR8B6kV Zcash:t1eRGFkiinTHQEKM9B5pTSLx5VFKmFXv3fd Litecoin:M85SkWDBy17APBfZAA41i77c8n1HgaBAcs Ethereum:9b9664fbb12c247294715866d8922bf3b75926b7 (Doesn’t accept smart contracts) BitTorrent Token (TRX):TAmeHvZGnV3xaWt7CQAWYcs6EqJRUNYyVG Paypal Donation -> [https://donorbox.org/lilithraws](https://donorbox.org/lilithraws)

  • [Lilith-Raws] Kingdom S03 – 01 [Baha][WEB-DL][1080p][AVC AAC][CHT][MKV].mkv (895.0 MiB)